一足论坛

 找回密码
 注册

QQ登录

快速开始

微信登录

搜索
查看: 898
回复: 2

[影音] 曼联/曼联重生

  [复制链接]

3416

主题

9万

帖子

141万

积分

超级版主

Rank: 11Rank: 11Rank: 11Rank: 11Rank: 11

积分
1418520

版主一足名誉勋章三级荣誉勋章论坛爱心奖论坛活力奖论坛勤劳奖曼联球迷勋章西班牙球迷勋章一足原创活动纪念勋章

 楼主| 发表于 2016-1-16 08:44 | 显示全部楼层 |阅读模式
本帖最后由 911 于 2016-1-16 08:46 编辑
+ m+ E. r* \3 B
' O: [0 `2 L9 |3 K
' m! \) F5 r+ x5 n% s2 m3 A$ k' j: [0 C: V  Y: ?3 v
◎译  名 曼联/曼联重生
( Z5 _7 q5 y% }: @& h◎片  名 United! K- w/ R5 M& X+ h5 ]2 @
◎年  代 2011& _: w+ I1 N- }8 B; f3 k- I
◎国  家 英国" ]6 \  f3 A/ q2 h! F
◎类  别 剧情/历史/运动
1 X) U, i5 o: W. t9 Q◎语  言 英语
4 I1 B4 T$ K  U7 P/ t! C◎字  幕 N/A
% r' q# h4 Y" r: p! y◎IMDB评分 7.4/10 (1,142 votes)2 v/ E, [4 ^1 B6 p2 Q
◎片  长 97 Mins. f# {2 ]+ v7 O/ b
◎导  演 詹姆斯·斯特朗 James Strong' ~; v+ [  T6 {; a& A& m' P
◎主  演 大卫·田纳特 David Tennant  ....Jimmy Murphy+ k) k  @# A0 q' X2 k- ^
      山姆·克拉弗林 Sam Claflin  ....Duncan Edwards
- ]/ i! ^- c8 t% S! y2 b$ [      杰克·奥康奈尔 Jack O'Connell  ....Bobby Charlton
+ v3 n; P8 c/ L& V      多格雷·斯科特 Dougray Scott  ....Matt Busby
1 {4 I0 Z6 `1 E0 |- A+ W      Melanie Hill  ....(unconfirmed): R* k2 e1 L9 F
      Thomas Howes  ....Mark Jones
  X5 H  G7 @; d0 h2 G! u; c1 x      迪恩·安德鲁斯 Dean Andrews  ....(unconfirmed)# D1 Z5 \! ]; C# |6 a- L$ f
      Werner Dähn  ....Prof. Maurer
+ _7 v3 |$ P2 C/ }+ }      Billy Fellowes  ....Bobby charlton snr4 T" O$ K8 z" Q
      Ben Peel  ....Harry Gregg
4 {& D% _% i7 @1 Z% j4 B# m/ l      Philip Hill-Pearson  ....Edward Colman
( f- x/ W3 h6 h      Brogan West  ....David Pegg1 _* V: U8 p3 W: X
      Natalie Burt  ....Marion Bent
3 \0 ]' j0 K$ F5 P      Helen Coverdale  ....Jean Busby9 m. I: ^1 u, \  Y
e\3e\曼联 United.2011.BluRay.1080p.DTS.x264-CHD.mkv
4 \; @! y7 y4 I1 I& U   General
. O0 H% v  a6 a% @, C2 h8 e( L      Complete name : e\3e\曼联 United.2011.BluRay.1080p.DTS.x264-CHD.mkv
3 ^. @1 r6 Q3 I) R$ d+ H3 F6 O      Format : Matroska
" t, H# }' M( J* g& O      File size : 7.93 GiB
3 I/ K* {; W* [: H& N) O: e2 v      Duration : 1h 37mn5 k0 s/ f, |0 t( K) N* U% V
      Overall bit rate : 11.6 Mbps/ [4 P# `& ]/ v! \5 F8 f
      Encoded date : UTC 2011-10-14 04:26:22+ c, e* c/ o2 W& g; S$ P1 h" V
      Writing application : mkvmerge v4.8.0 ('I Got The...') 编译于 May 24 2011 03:12:58
' m0 m3 l' Y( T      Writing library : libebml v1.2.0 + libmatroska v1.1.0
- ^2 B, n2 Q9 c, f9 v2 {  s   Video #1
: T; X3 a# d+ U3 I' b0 V4 |      ID : 1
4 V2 w0 ]$ e  }1 y1 E) |      Format : AVC: \3 g$ _- A+ G3 X% p! r) o/ Y
      Format/Info : Advanced Video Codec
0 Q7 c3 L* @2 G2 ]5 Y) d      Format profile : [size=0.9em]High@L4.12 I  G& u! \9 `' `
      Format settings, CABAC : Yes
4 D* O+ ^$ E$ u# ^. R& H      Format settings, ReFrames : 4 frames" q! S. l) n9 ~4 f% H
      Muxing mode : Container prosrc=Unknown@4.1
8 P3 h6 M5 f* R( Y% _% ?" r      Codec ID : V_MPEG4/ISO/AVC$ G7 Z3 @0 x: K8 r
      Duration : 1h 37mn0 [' e' j$ u+ ~
      Bit rate : 9 864 Kbps
% E+ P  Q, r, h      Nominal bit rate : 10.1 Mbps, S6 v0 n$ t4 I$ M; N- b+ K6 S4 {
      Width : 1 920 pixels* b( C: n! i3 u0 H! G+ }
      Height : 1 080 pixels
+ N8 b2 v$ U- m  i% U+ |! {      Display aspect ratio : 16/9/ B- H, r/ R( z! \) d
      Frame rate : 24.000 fps5 R2 [0 ]$ I; {; p8 f) W' X
      Resolution : 24 bits4 _* I( P/ f/ z0 |% Q  B1 l
      Colorimetry : 4:2:0
. M7 I2 I, S" I. A! J2 K0 B      Scan type : Progressive
: n2 F9 w$ m4 r      Bits/(Pixel*Frame) : 0.198
3 ]$ ~4 b. m: U9 m: I  n  G      Stream size : 6.74 GiB (85%)
8 q0 h2 W) S+ g6 b% t9 w/ ~      Title : hahay0yo@CHD
2 l+ y! I& I0 E2 w* ?9 H      Writing library : x264 core 116 r2074 2641b9e
( @3 G) J! N- U. [, \. S8 F3 c8 b   Audio #2
& B( u" s) I( b/ l2 A: P! n  `* }      ID : 2
$ u+ }1 h( a' I- R      Format : DTS, z/ y6 q2 B8 a( i+ q, I
      Format/Info : Digital Theater Systems
# Q4 u2 s* r" B      Codec ID : A_DTS
6 y$ I+ e( s  y      Duration : 1h 37mn) z& i4 |% |7 c) ?
      Bit rate mode : Constant$ {/ W/ ~  j4 `
      Bit rate : 1 510 Kbps0 P" K/ l, l  |% k
      Channel(s) : 6 channels, H/ d/ }" g- W. M- b* A
      Channel positions : Front: L C R, Surround: L R, LFE  `7 N% r7 S9 L2 L7 o0 @' ]! {
      Sampling rate : 48.0 KHz
, h3 J) V: o9 E8 d" I      Resolution : 16 bits) G) R! B+ [. i( k8 U+ W
      Video delay : 1s 52ms% t5 S4 q" ~, W4 B2 r9 ?: d
      Stream size : 1.03 GiB (13%)
" k" B# t8 X% Z/ \6 H) ?" T      Title : English DTS 5.1 1509Kbps

8 ]5 p7 D+ G6 @- K0 T◎简  介& R% Y# u/ d" l1 a7 |" D, U) L

; v0 ^* f$ x- R7 w1 P0 B       影片讲述了慕尼黑空难后仅存数人的曼联队重建的故事,扮演教练的大卫·田纳特和扮演球员的年轻演员们表现出色,而看了影片,作为一名球迷,很难不落下眼泪。# B5 E% C- z4 b4 X) g

( u4 y4 Y4 L6 ^( C1 ]: L       BBC2台的新片《United》将讲述红魔曼联历史上关于"Busby Babes"(巴斯比宝贝)的真实故事,这帮小伙子是有史以来赢得联赛冠军的队伍中最年轻的一支,而在1958年的慕尼黑空难之后,他们失去了8名队员,《United》便以此为背景,展现了灾难前MU的辉煌以及重大的灾难后球队的重建,代表了曼彻斯特,这个城市强大的精神力。 & e% o3 s) @: ~5 m+ q

7 Y- J- l$ u5 y6 @% g3 d( C  影片的剧情主要汇聚在曼联队的助理吉米·墨菲和当时年轻的球员鲍比·查尔顿的身上。影片的故事开始于1956年,墨菲给了查尔顿一个在曼联一队踢球的机会。而查尔顿则是当年最早的几个Busby Babes之一。  ]% z& w, n. B0 j& N0 @
8 Q3 `! a' O$ N. A- \% V3 A
  1958年,曼联队主帅马特·巴斯比向足球协会的主席阿兰·哈达克申请,希望球队能去欧洲参加欧洲杯的比赛。但是附加条件是整支球队要按时赶回英国,参加剩下的已经订好时间的联赛。于是球队出国比赛,看上去一切都很顺利,他们在国内的比赛和国际赛场上都取得了不错的成绩。! n9 O* n$ V: h

) N  F% r. W& b  可是悲剧就在这个时候发生了,曼联队乘坐的包机在德国慕尼黑发生了空难。23人死于飞机失事。包括外号美洲豹的邓肯·爱德华兹、当年身价最高的托米·泰勒、队长罗杰·拜恩在内的23人都死于这场空难。在幸存下来的十个人中,只有4个人还可以继续踢球。面对着惨剧,吉米·墨菲并没有被打倒,他迅速组建起了一支新的曼联队,参加了下一场比赛,以及1985年的足总杯决赛。; H1 I+ ^2 V3 H
* g; ~: x  C5 D8 @* F8 W! ~- H  }5 I
/ ^" N; a- H+ S
一句话评论, w+ _$ F1 y. G: |) }* H

, z5 v6 R2 ]. Q/ oCGI版本的老特拉福德球场看起来比真实的还要真实,年轻演员的表演和球技都很不错。尤其值得一提的是大卫·田纳特的表演,他的发挥足以震撼到所有人。
  [) I5 @: B7 ^; `# N% d4 T6 `' w——每日邮报
4 G+ w# t3 z0 @- M2 m; M% \' ]! P0 F/ i- p7 q$ h4 H9 n9 F6 z2 }
影片拍摄得非常精致,而且也揭露了当时的足球和现在的足球之间的诸多不同。整部影片可以说是令人激动的,当然也令人动容。如果你没哭,那只能说明你是一个比我还狠心肠的家伙。
! y. S) M4 ?7 Q——卫报 $ D) @1 Z3 |2 c, w9 V! \! M

6 C8 J4 w- e3 t
1 C1 x7 ?" ?. Y0 G( `幕后制作! Q* y0 E- ~, s% x# ]

; x$ L! _9 p2 y- q' b, W8 q( i  再现红魔的历史
% i/ S+ Z" L. A. p; ?+ ~: s* _
4 t! K. ^: F3 p2 ?/ ?# v  对于曼联的球迷而言,1958年的慕尼黑空难是俱乐部历史上最黑暗的日子。但是从废墟中爬出来的主帅巴斯比和查尔顿、后卫福克斯等年轻球员重组球队。十年之后,曼联4比1击败了尤西比奥率领的本菲卡队,第一次获得了冠军杯。赛后,巴斯比将那座为之奋斗的奖杯高高举其8次——代表着在空难中罹难的8名球员。每举一次,他就将球员的名字大声念一遍。
' x5 V. S" o  T4 i+ k" Q) b0 \1 D3 ]" [% U8 i$ r
  这么一个励志的、饱含着奋斗意味的故事打动了所有人——包括影片的主演和制片。在剧中扮演吉米·墨菲的大卫·田纳特说:“我并不是球迷,但是当我拿到剧本的时候,我知道这会是一个值得一读的剧本。因为我之前和编剧、导演有过合作。不出我所料,这是一个非常棒的剧本。在故事里,我们跟着曼联队展开了一段简直是不可思议的复兴史。我觉得整个故事都是励志而且大气磅礴的。而且,这样的故事,不会得到什么恶评,因为其中的人生观和价值观是积极向上的。我在看完剧本后,就决定要加入剧组。”6 W( Y" C  L" W
8 q- ~  m1 c# c5 X! R5 u! E
  实际上,曼联的复兴史非常长,球队用了十年时间才从空难的泥潭中走出来。用两个小时的时间来说一支球队的复兴,显然不太现实。影片的制片人茱莉亚·斯坦纳德说:“这是一个讲述一个团队如何重拾信心并从灾难中走出来的故事。而且当年的那支曼联有着太多的传奇球员了。活下来的查尔顿、遇难的邓肯·爱德华兹,都是巨星。如果这些球员没有遇难,真不知道当下世界足坛的格局会是什么样子。我们拍摄这部电影,并不是要回忆球员、空难的。而是希望人们能从中汲取力量、找回信心的。我们拍摄它是为了表达我们对当时曼联队的这种不被困难打倒的勇气和信心的赞。曼联队的这种历史,值得我们尊敬。”
* i, Q4 A- u% C, W4 w& J6 E* r0 N
  与足球无关" @* v: g6 I; |

9 ~# W+ k2 J/ }: k1 }6 p  虽然说整部影片围绕着足球队、球员和比赛展开,但是在扮演曼联主帅马特·巴斯比的多格雷·斯科特的眼中,这部影片的主题,却和足球没有一点联系。斯科特说:“影片最令人惊喜的地方并不是发生在球场或者是更衣室里的,而是发生在所有球员——那些年轻球员的心里的。他们的心理的成熟和足球几乎没有半点关系,换句话说,足球不过是这些人的职业,而他们的成熟则是因为在灾难之后的重建信心;那些球员和教练以及家庭的关系,促使着他们从男孩变成了男人。”
- I% B9 H9 A, j4 T* U+ H
0 x6 s+ b, T6 `9 E  k6 A0 {2 Q* t  影片导演詹姆斯·斯庄也并没有想把这部影片拍成“体育运动片”。他说:“这部电影的主题并不发生在球场上,所以它并不是一部以运动为主题的影片。我想要讲述的是一群年轻球员的成长和成熟的过程,当然,还有他们和年长者走出痛苦的历程。我觉得这是更有意义的事情。如果要看曼联的历史、曼联的故事,应该去看曼联队的纪录片。而电影则一定要有主题和感动人的情节。我所用的途径就是把目光集中在两个人身上,用他们的关系和心态的变化来展示这个大时代和大背景下的球队的故事。”斯庄选择的是球队助理吉米·墨菲和年轻的鲍比·查尔顿。他说:“查尔顿是众人皆知的大球星,而墨菲则算得上是一个幕后英雄。墨菲在空难后,的确为整个俱乐部出了很多力,是他的坚定和坚持才让曼联队运作了下去。他和查尔顿的关系并不为人所熟知,所以我们着重挖掘了他们的关系,用这两个人关系的变化展示了整个球队的命运。我想,这就能叫做以小见大。站在这个角度上来说,影片主旨和足球的联系并不是太大,它讲述的是一个励志的故事。”8 Z% H3 W" W; {
5 P$ U2 f* g) w  S) F; `0 \* q

9 s) ^2 h1 [  Q' W( g花絮 6 d( \: u1 C) d- B
+ Z4 p# H3 [* }5 l7 J/ h
·马特·巴斯比的儿子桑迪·巴斯比对影片非常不满,他曾经公开指责影片“拍摄简陋”。他这么说的原因是,在影片立项到拍竣期间,他一直没有接到BBC的通知和邀请。5 ?6 O  C0 T9 }4 ]' b

# E6 e. J+ |5 j' j·BBC为影片投资了200万英镑。" e* X+ Q  k( a9 a/ p  B

% j: X: y$ Q+ w6 Q/ F·在创作剧本阶段,编剧克里斯采访了还在世的空难幸存者和罹难者的家庭。$ X0 r) y- T% j, Y

4 m& f/ a8 i( w& R0 e2 ]- H
4 g5 G3 j; N5 H
' Y8 N. n6 J$ V8 w+ ]$ ~
6 G; d' J8 y+ ]2 f, D( Q1 Y( @* S

7 a" t/ R8 x+ t- R磁力链接:
/ j2 S, j& \; ?+ R$ e4 ~magnet:?xt=urn:btih:8A9A677D3498F15BF22540EC38B20513B7842225) y3 {$ _  T! |
恐怖袭击
回复

使用道具 举报

1

主题

8820

帖子

13万

积分

超级巨星

Rank: 4

积分
132300
发表于 2016-1-16 16:57 | 显示全部楼层
torrenttorrenttorrent
回复 支持 反对

使用道具 举报

您需要登录后才可以回帖 登录 | 注册

本版积分规则

Archiver|手机版|小黑屋|一足论坛   

GMT+8, 2019-7-22 18:54 , Processed in 0.121487 second(s), 27 queries .

Powered by Discuz! X3.2

© 2001-2013 Comsenz Inc.

快速回复 返回顶部 返回列表